Следующий

deep house 2019 mix by bob deep TRACKS LIST free download

0 Просмотры· 01 Dec 2021
root
root
1 Подписчики
1

deep house 2019 mix by bob deep free download
TRACKS LIST
PERFORMER "bob deep"
TITLE "deep house 2019 n1"
FILE "deep house.mp3" MP3
TRACK 01 AUDIO
TITLE "Birdie Girl - YouTube"
PERFORMER "01 Alex Hook feat. Oxana Yu"
INDEX 01 00:00:00
TRACK 02 AUDIO
TITLE "Miles Away - YouTube"
PERFORMER "02 Dj Goja"
INDEX 01 03:19:00
TRACK 03 AUDIO
TITLE "Hypnotized Me"
PERFORMER "03 Yalown"
INDEX 01 06:37:00
TRACK 04 AUDIO
TITLE "Thank You (Dj Rogrio Lago Remix)"
PERFORMER "04 Dido"
INDEX 01 10:54:00
TRACK 05 AUDIO
TITLE "Kissing Your Shadow (MBNN Remix)"
PERFORMER "05 Neteta"
INDEX 01 15:34:00
TRACK 06 AUDIO
TITLE "Wonder Where You Are - YouTube"
PERFORMER "06 The Waked Sara Sangfelt"
INDEX 01 19:34:00
TRACK 07 AUDIO
TITLE "My Friend"
PERFORMER "07 Yalown"
INDEX 01 23:00:00
TRACK 08 AUDIO
TITLE "Dance 4 Me"
PERFORMER "08 Daniel Fernandes"
INDEX 01 27:05:00
TRACK 09 AUDIO
TITLE "Miles Away"
PERFORMER "09 Vin Veli feat. Sava"
INDEX 01 32:14:00
TRACK 10 AUDIO
TITLE "Deep Down"
PERFORMER "10 Moe Turk"
INDEX 01 37:00:00
TRACK 11 AUDIO
TITLE "Save Me (Morandi Cover)"
PERFORMER "11 Kapral feat. Sharliz Антон Балков"
INDEX 01 42:24:00
TRACK 12 AUDIO
TITLE "I Just Died In Your Arms"
PERFORMER "12 Komodo"
INDEX 01 45:55:00
TRACK 13 AUDIO
TITLE "Rush"
PERFORMER "13 DJ Marlon"
INDEX 01 51:21:00
TRACK 14 AUDIO
TITLE "Hold It Down"
PERFORMER "14 Dont Look Now"
INDEX 01 57:00:00
TRACK 15 AUDIO
TITLE "S M"
PERFORMER "15 Rihanna"
INDEX 01 62:28:00


holidays in Greece, 2018, Visit Greece, & Greek islands, Discover the Greek islands, Beach Parties, Around Greece, Visit The Best Music Bars, Beach Party, no limits, Top Summer hits, Crazy Night Parties, & Sexy Girls, Corfu, ios, Kefalonia, Kos, Milos, Rhodes, Santoriny, Sifnos, Spetses, Thassos, Tinos, santorini, Zakynthos, Mykonos, Paros, Samos, Naxos,Athens, Chalkis, Halkidiki,CRETE, Katerini, Kavala, Peloponnese, Thessaloniki, Volos Pelio, Let's dance, & fun,bet of, Deep House vibes, progressive,disco, Chill Out ,house music,mix Oriental, Arabic Deep House, Ethnic vibes Mix, Tropical House , Relaxing Summer Mix, Best of Popular , club music, new music, Special dance Deep House, Magic Club Sessions, deep house selestion ,BABIS JB, BOB DEEP, 2018, LIVE MIX, MUSIC, TO THE Best, Greek beach bars ant cafe
For COPYRIGHT ISSUES, please email us and your song/picture will be removed immediately: djbabiscrete@gmail.com my appreciation to ARTISTs and LABELs, maybe I offer something with it.
Thank you all so much and I wish you're always happy wherever you are top djs mix

Показать больше

 0 Комментарии sort   Сортировать по


Комментарии Facebook

Следующий